[ 1 | 2 | 3 ]
wud.the movie
Azrael
Ultimate-Warrior
Posts: 57
# 29.04.2007 - 20:23:14
    zitieren



Sehr sehr geiles Video. Echt super gemacht Jack, weiter so.

*wud*

dIAz
Warrior King

User Pic

Posts: 449
# 13.08.2007 - 11:07:39
    zitieren



Nu nu nu wo bleibt der nächste movie?

jAck0r
WuDMovie Regisseur

User Pic

Posts: 230
# 13.08.2007 - 11:08:23
    zitieren





Nachdem es über 6 Jahre bis zum ersten CS Movie von und mit den Warriors Of Ultimate Destruction gedauert hat, habe ich mir gedacht, so lange darf es nicht nochmal dauern.

Deshalb habe ich mich an die Arbeit gemacht (diesmal mit Unterstützung vom d!4z) und ein 12 1/2 Minuten langer, vor WuD Power strotzender Movie ist dabei herausgekommen.

Details zum Film:





Zuletzt modifiziert von jAck0r am 14.08.2007 - 18:09:13
dIAz
Warrior King

User Pic

Posts: 449
# 13.08.2007 - 11:20:40
    zitieren



Wuhu also als erster Gucker! eindeutiges daumen hoch mal wieder an super geiler movie... wo keiner zu kurz kommt! außer curble der leider net vorgestellt wurde! ich weiß nicht was den jack da geritten hat :dumm:! *rulor*:kino:


Zuletzt modifiziert von dIAz am 13.08.2007 - 11:49:29

jAck0r
WuDMovie Regisseur

User Pic

Posts: 230
# 13.08.2007 - 12:01:50
    zitieren



 Zitat von dIAz

Wuhu also als erster Gucker! eindeutiges daumen hoch mal wieder an super geiler movie... wo keiner zu kurz kommt! außer curble der leider net vorgestellt wurde! ich weiß nicht was den jack da geritten hat


hmmm, tja wie das passieren konnte kann ich mir auch nicht erklären, sry curb :(

mal guckn vielleicht änder ich das noch!
jAck0r
WuDMovie Regisseur

User Pic

Posts: 230
# 14.08.2007 - 18:08:56
    zitieren



 Zitat von jAck0r
mal guckn vielleicht änder ich das noch!

Gesagt ---> getan!
Curb ist jetzt auch mit im Vorspann. Also den alten WuDSTOCK löschen und den neuen WuDSTOCK1.1 saugen!

http://www.filefactory.com/file/9fbacf/
Matthauser
Chef

User Pic

Posts: 603
# 14.08.2007 - 23:18:21
    zitieren



So das WuD Video gibts nun auch per Full-Speed Download vom WuD Server.
zu finden in unserer Download Sektion:


http://wud-clan.de/index.php?downloads-show-15


Bitte weitersagen, denn wir haben noch genügend Traffic frei in diesem Monat :moto:
jAck0r
WuDMovie Regisseur

User Pic

Posts: 230
# 18.11.2007 - 01:53:43
    zitieren



Habe grade für den neusten Movie eine Art Filmplakat kreiert



Also der Filmtitel steht schonmal, mit dem Movie selbst hab ich noch nicht wirklich angefangen. Diaz und ich sind jedoch wieder dabei Demos zu sichtigen...


Zuletzt modifiziert von jAck0r am 18.11.2007 - 14:14:22
Matthauser
Chef

User Pic

Posts: 603
# 18.11.2007 - 12:39:36
    zitieren



Jeah :)

Aber ich wär für den Werbefreien Upload auf einen passenden Webspace :O

z.b. http://jack.wud-clan.de/

Schreib mich mal an, timo
dIAz
Warrior King

User Pic

Posts: 449
# 18.11.2007 - 13:14:13
    zitieren



nicht schlecht herr specht! Ich werde sogar erwähnt :D

jAck0r
WuDMovie Regisseur

User Pic

Posts: 230
# 08.07.2008 - 18:32:02
    zitieren



Wie die meisten schon wissen werkel ich zur Zeit an einem neuen Movie. Ich habe mir diesmal vorgenommen, mir etwas mehr Zeit zu lassen um genügend Material zusammen zu bekommen. 80GB an Szenen befinden sich schon auf meinen Festplatten, tendenz steigend ;)
Diaz ist auch wieder mit an Bord und kümmert sich mit seinem geschulten Adlerauge um die Demos.

Wir hoffen und denken, dass der Movie im Herbst das tageslicht erblicken wird. Für einen knapp über 2 minütigen Trailer hat das aktuelle Material trotzdem locker gereicht. Have Fun & GQQd Luck beim anschauen!



Details zum Trailer:

Allgemein
Format : AVI
Format/Info : Audio Video Interleave
Dateigröße : 53.0 MiB
Duration : 2min 6s
Gesamte Bitrate : 3516 Kbps
verwendete Encoder-Bibliothek : VirtualDub build 28346/release

Video
Format : MPEG-4 Visual
Format profile : Streaming Video@L1
Format settings, BVOP : Ja
Format settings, QPel : Ja
Format settings, GMC : No warppoints
Format settings, Matrix : Default
Muxing mode : Packet Bitstream
Codec ID : XVID
Codec ID/Hint : XviD
Duration : 2min 6s
Bitrate : 3311 Kbps
Breite : 960 Pixel
Höhe : 540 Pixel
Bildseitenverhältnis : 16/9
Bildwiederholungsrate : 29.970 FPS
Auflösung : 8 bits
Colorimetry : 4:2:0
Scan type : Progressive
Bits/(Pixel*Frame) : 0.213
Stream size : 49.9 MiB (94%)
verwendete Encoder-Bibliothek : XviD 1.1.2 (UTC 2006-11-01)

Audio
Format : MPEG Audio
Format version : Version 1
Format profile : Layer 3
Codec ID : 55
Codec ID/Hint : MP3
Duration : 2min 6s
Bitraten-Modus : Constant
Bitrate : 192 Kbps
Kanäle : 2 Kanäle
Samplingrate : 48.0 KHz
Auflösung : 16 bits
Stream size : 2.89 MiB (5%)

Und hier das Wichtigste: http://jack.wud-clan.de/Trailer_WuD08.avi


Zuletzt modifiziert von jAck0r am 08.07.2008 - 19:18:53
Matthauser
Chef

User Pic

Posts: 603
# 08.07.2008 - 19:09:08
    zitieren



Geile Sache, du kannst einen ja richtig ungeduldig machen.
Ich fühl mich wie ein zehnjähriger 3 Tage vor Weihnachten
:nein:
bananagogo
Server Admin

User Pic

Posts: 411
# 09.07.2008 - 11:13:50
    zitieren



also mir gefällts :D


Mein Lieblingsvideospielheld ist der Lange von Tetris.
Matthauser
Chef

User Pic

Posts: 603
# 09.07.2008 - 18:38:00
    zitieren



 Zitat von bananagogo

also mir gefällts :D


Nur schade, das dein name nicht im Video auftaucht:vogel:
bananagogo
Server Admin

User Pic

Posts: 411
# 09.07.2008 - 20:46:43
    zitieren



naja dafür bin ich wohl etwas zu inaktiv :D
Aber ratet mal wer jetzt Semesterferien hat und sich heute einen neuen PC bestellt hat :boom:


Mein Lieblingsvideospielheld ist der Lange von Tetris.
[ 1 | 2 | 3 ]
 Next Event
Kein Event im Kalender
 WuD Teamspeak
 Like us! Over 9000!!
 Login


    Regist
 Shoutbox
Fade: KROXELDIFEK!!! :D
Matthauser: hey Mister - Mister Greeeeeeen
MrGreen: Moin Moin
Merlin: Moep
Merlin: Wie schaut's aus Matt?
Archiv
 wud-kicktipp
 RandomHauser:

SquirtHauser
by
Fade

Google+